<?xml version="1.0" standalone="no"?> <!DOCTYPE svg PUBLIC "-//W3C//DTD SVG 1.0//EN" "http://www.w3.org/TR/2001/REC-SVG-20010904/DTD/svg10.dtd" > <svg xmlns="http://www.w3.org/2000/svg" width="100%" height="100%">
<defs >
<font id="MathJax_Typewriter-Regular" horiz-adv-x="479" ><font-face
    font-family="MathJax_Typewriter"
    units-per-em="1000"
    panose-1="0 0 0 0 0 0 0 0 0 0"
    ascent="961"
    descent="-429"
    alphabetic="0" />
<missing-glyph horiz-adv-x="250" d="M50 0V533H200V0H50ZM100 50H150V483H100V50Z" />
<glyph unicode=" " glyph-name="space" horiz-adv-x="250" />
<glyph unicode="!" glyph-name="exclam" horiz-adv-x="525" d="M206 565Q206 590 222 606T265 622Q288 621 303 606T319 565T314 392L308 216Q302 202 294 198T262 194T231 197T217 216L211 392Q206 539 206 565ZM265 115Q289 113 304 98T320 58Q320 32 304 16T262
0Q237 0 222 15T206 56Q206 83 222 99T265 115Z" />
<glyph unicode="&quot;" glyph-name="quotedbl" horiz-adv-x="525" d="M122 575Q122 595 137 609T173 623T209 610T225 575Q225 562 218 464Q212 373 211 361T201 341Q193 333 173 333Q154 333 146 341Q138 348 137 360T129 464Q122 561 122 575ZM299 575Q299
595 314 609T350 623T386 610T402 575Q402 562 395 464Q389 373 388 361T378 341Q370 333 350 333Q331 333 323 341Q315 348 314 360T306 464Q299 561 299 575Z" />
<glyph unicode="#" glyph-name="numbersign" horiz-adv-x="525" d="M36 198Q36 204 37 209T41 217T46 222T54 228T61 233H131V236Q132 239 140 307T149 377Q149 379 105 379L61 380Q36 392 36 414Q36 440 59 447Q65 449 112 449H159Q163 480 167 517Q177 587 179
592Q188 611 210 611T241 592L245 580Q245 565 238 511T230 451Q230 449 282 449H333Q337 480 341 517Q351 587 353 592Q363 611 384 611Q397 611 407 602T419 580Q419 565 412 511T404 451Q404 449 431 449Q459 449 465 447Q489 439 489 414Q489 394 463 380L428
379H394V376Q393 373 385 305T376 235Q376 233 419 233H463Q464 232 467 230T472 227T476 224T480 220T484 216T487 211T488 205T489 198Q489 173 465 165Q459 163 412 163H366V161Q364 159 357 92Q347 24 345 19Q335 0 314 0Q301 0 291 9T279 31Q279 37 287 96T295
162Q295 163 244 163H192V161Q190 159 183 92Q173 24 171 19Q161 0 140 0Q127 0 117 9T105 31Q105 37 113 96T121 162Q121 163 93 163T59 165Q36 172 36 198ZM323 377Q323 379 272 379H220V376Q219 373 211 305T202 235Q202 233 253 233H305V236Q306 239 314 307T323
377Z" />
<glyph unicode="$" glyph-name="dollar" horiz-adv-x="525" d="M466 453Q466 426 452 411T412 396Q390 396 376 410T362 448Q362 468 376 485L372 492Q355 525 306 536L300 538V445L301 353L311 350Q401 329 444 256Q466 218 466 174Q466 103 412 52Q368 11 303
-2L300 -3V-30Q300 -64 291 -74Q283 -82 262 -82Q232 -82 225 -60L224 -32V-4L213 -2Q195 1 176 8Q121 27 90 70T59 170Q59 188 62 195T74 213Q90 227 110 227Q132 227 147 212T162 174Q162 158 147 137Q170 82 221 75L224 74V283L213 285Q188 290 160 303Q112
326 85 365T58 449Q58 532 143 586Q146 587 152 590T161 595Q193 609 224 614V643Q224 670 227 676Q236 694 264 694Q283 693 291 685Q300 675 300 642V615H303Q326 611 335 608Q430 585 458 504Q466 478 466 453ZM224 369T224 453T223 537Q206 534 192 525Q157
508 144 481Q137 468 137 452Q137 407 191 381Q213 369 223 369Q224 369 224 453ZM387 171Q387 204 363 229T300 267V171Q300 75 301 75Q308 75 328 86Q387 116 387 171Z" />
<glyph unicode="%" glyph-name="percent" horiz-adv-x="525" d="M35 560Q35 607 54 645T110 693Q111 693 116 693T125 694Q152 692 173 670Q210 631 210 560Q210 513 192 477T143 431Q135 428 123 428Q93 428 72 451Q35 491 35 560ZM129 607Q125 615 124 615Q122
617 120 614Q106 595 106 561Q106 516 121 506Q123 504 125 507Q139 526 139 560Q139 590 129 607ZM123 -83Q109 -83 99 -73T88 -48Q88 -43 89 -41Q90 -37 229 316T370 675Q380 694 400 694Q415 694 425 684T436 659Q436 654 435 652Q434 647 295 294T153 -65Q144
-83 123 -83ZM314 50Q314 99 333 136T389 182Q392 183 400 183Q428 183 449 162Q489 124 489 50Q489 4 471 -32T421 -80Q414 -82 402 -82Q374 -82 354 -62Q314 -24 314 50ZM417 50Q417 90 401 106Q398 106 388 79Q386 70 386 50T388 21Q397 -6 402 -6Q405 -6 415
21Q417 30 417 50Z" />
<glyph unicode="&amp;" glyph-name="ampersand" horiz-adv-x="525" d="M96 462Q96 531 126 576T211 622Q229 622 251 612Q280 598 297 561T314 474Q314 421 280 372Q259 340 224 305L208 288Q211 279 226 251L265 185L269 179Q276 191 299 246L332 333L342 363Q342
364 341 365Q340 365 336 371Q334 376 334 393Q334 412 338 418T356 431H412Q466 431 472 428Q490 421 490 393T472 358Q466 355 441 355H415L399 312Q349 176 322 127L315 115L323 106Q359 65 393 65Q404 65 410 79T416 109Q416 140 452 140Q472 140 479 131T487
102Q482 24 428 -3Q412 -11 391 -11L286 41L273 53L262 42Q211 -11 151 -11Q112 -11 82 13T38 81Q28 114 28 143Q28 191 49 230Q58 248 94 283L122 311L119 323Q96 394 96 462ZM243 474Q243 532 218 545L215 546Q212 546 210 546Q182 546 169 501Q167 492 167 466Q167
420 179 368L188 377Q234 425 242 461Q243 465 243 474ZM217 129Q179 186 154 235Q152 235 141 223T126 206Q113 184 113 143Q113 82 139 67Q141 66 152 66Q191 66 228 112L217 129Z" />
<glyph unicode="&apos;" glyph-name="quotesingle" horiz-adv-x="525" d="M205 529T205 554T221 595T263 611Q275 611 290 606Q317 595 333 564T349 490Q349 409 298 347Q277 318 239 296Q224 287 214 287Q204 288 190 302T175 327Q175 345 196 358Q228 374 249
407T273 483V497Q272 497 269 497T263 496Q240 496 223 512Z" />
<glyph unicode="(" glyph-name="parenleft" horiz-adv-x="525" d="M437 -53Q437 -82 399 -82Q384 -82 380 -80Q367 -75 342 -55Q259 7 213 102T166 306Q166 461 256 582Q294 631 342 667Q369 687 380 692Q384 694 399 694Q437 694 437 665Q437 661 435 655Q431
645 414 634Q349 590 311 525Q294 500 279 461Q250 389 250 306T279 151Q322 37 422 -27Q437 -37 437 -53Z" />
<glyph unicode=")" glyph-name="parenright" horiz-adv-x="525" d="M87 664Q87 694 126 694Q141 694 144 692Q155 688 183 667Q266 605 312 510T358 306Q358 164 282 51Q233 -21 161 -70Q142 -82 126 -82Q105 -82 96 -73T87 -53T91 -37T109 -23Q239 68 267 231Q273
263 273 306Q273 405 230 494Q188 579 109 635Q87 649 87 664Z" />
<glyph unicode="*" glyph-name="asterisk" horiz-adv-x="525" d="M222 487Q224 501 235 510T262 520T289 511T302 487Q302 458 301 429Q301 421 301 413T301 398T300 386T300 377V374Q300 373 301 373Q303 373 325 385T371 413T400 430Q410 434 416 434Q432 434
444 423T456 393Q456 372 441 361Q437 359 389 333T339 305L388 279Q400 273 412 266T432 255T441 250Q456 238 456 218Q456 200 445 189T417 177Q408 177 400 181Q388 187 364 201T322 227T301 238Q300 238 300 237V234Q300 231 300 226T300 214T301 199T301 182Q302
153 302 124Q300 109 289 100T262 90Q246 90 235 100T222 124Q222 153 223 182Q223 190 223 198T223 213T224 225T224 234V237Q224 238 223 238Q221 238 199 226T153 198T124 181Q114 177 108 177Q92 177 80 188T68 218Q68 239 83 250Q84 250 91 254T110 264T134
277Q182 303 185 306L136 332Q124 338 112 345T92 356T83 361Q68 373 68 393Q68 411 79 422T107 434Q116 434 124 430Q136 424 160 410T202 384T223 373Q224 373 224 374V377Q224 380 224 385T224 397T223 412T223 429Q222 458 222 487Z" />
<glyph unicode="+" glyph-name="plus" horiz-adv-x="525" d="M297 107Q279 81 262 81Q241 81 228 107L227 189V271H147Q67 271 61 273Q38 280 38 306T61 339Q67 341 147 341H227V423L228 505Q241 531 262 531Q279 531 297 505V341H377Q457 341 463 339Q487 331
487 306T463 273Q457 271 377 271H297V107Z" />
<glyph unicode="," glyph-name="comma" horiz-adv-x="525" d="M265 0Q232 0 213 18T193 70Q193 101 211 120T260 140Q301 140 327 111T353 36Q353 -28 318 -73T230 -136Q221 -139 215 -139Q204 -139 189 -125Q177 -111 174 -101Q172 -84 186 -74Q187 -73 200 -68Q233
-57 253 -33Q258 -28 272 1L265 0Z" />
<glyph unicode="-" glyph-name="hyphen" horiz-adv-x="525" d="M57 280T57 306T86 341H438Q468 331 468 306T438 271H86Q57 280 57 306Z" />
<glyph unicode="." glyph-name="period" horiz-adv-x="525" d="M193 70Q193 100 212 120T258 140Q290 140 311 121T332 70Q332 39 313 20T262 1Q230 1 212 19T193 70Z" />
<glyph unicode="/" glyph-name="slash" horiz-adv-x="525" d="M94 -83Q78 -83 68 -73T58 -48Q58 -44 60 -36Q62 -31 227 314T399 673Q409 694 431 694Q445 694 455 684T466 659Q466 656 464 648Q463 643 298 298T125 -62Q114 -83 94 -83Z" />
<glyph unicode="0" glyph-name="zero" horiz-adv-x="525" d="M171 593Q212 621 257 621Q283 621 289 620Q346 609 390 562Q482 468 482 306Q482 185 427 96T289 -9Q283 -10 262 -10T235 -9Q180 2 134 49Q42 143 42 305Q42 402 77 478T171 593ZM248 545Q193 534
160 467T126 320Q126 220 162 147Q204 65 262 65Q271 65 276 66Q333 78 365 154T398 320Q398 397 367 463T284 543Q270 545 257 545H248Z" />
<glyph unicode="1" glyph-name="one" horiz-adv-x="525" d="M137 424Q119 424 112 429T99 447V461Q99 482 106 490T133 500Q147 502 151 502Q213 517 251 596Q259 611 264 616T283 622Q309 622 319 597V76H373Q426 76 432 73Q450 66 450 38Q450 12 428 1H127Q104
10 104 38T122 73Q128 76 181 76H235V269Q235 461 234 461Q186 427 137 424Z" />
<glyph unicode="2" glyph-name="two" horiz-adv-x="525" d="M105 407Q81 407 67 422T52 462Q52 516 86 553T172 609Q208 622 247 622H250Q326 622 383 584T462 483Q472 454 472 421Q472 360 436 306Q416 276 390 250T308 178Q185 82 185 77Q185 76 286 76H388V87Q388
105 397 114T430 123T463 114Q470 107 471 100T472 61Q472 25 470 20Q464 7 450 1H75Q62 6 58 13T53 38Q53 54 55 59Q58 64 169 157L289 256Q349 310 371 353Q388 384 388 419Q388 476 343 510T231 545Q176 545 146 499L144 494Q155 477 155 459Q155 435 142 421T105
407Z" />
<glyph unicode="3" glyph-name="three" horiz-adv-x="525" d="M125 446Q102 446 88 462T73 504Q76 539 98 564T152 602Q198 621 239 621Q241 622 265 622Q383 617 431 542Q451 510 451 478Q451 388 369 329Q411 305 417 300Q466 260 478 204Q479 198 479 180Q479
156 477 148Q464 80 404 35T259 -11Q171 -11 113 22T46 112Q44 124 44 130Q44 153 58 168T95 183Q116 183 132 169T148 131Q148 121 139 101Q175 65 260 65Q350 65 386 136Q395 155 395 179Q395 226 361 256T280 291Q275 292 234 292Q199 292 194 294Q175 301 175
330Q175 350 184 359Q189 365 196 366T236 370Q289 374 309 384Q367 414 367 474Q367 496 350 513Q322 546 260 546Q205 546 176 528Q175 527 173 526Q171 525 171 524Q172 521 173 517Q177 509 177 497Q177 476 162 461T125 446Z" />
<glyph unicode="4" glyph-name="four" horiz-adv-x="525" d="M235 1Q222 6 218 13T213 38Q213 54 215 59Q221 68 230 73Q236 76 274 76H314V168H183L52 169Q36 175 31 188Q29 193 29 218L30 244Q37 255 148 431T264 613Q277 624 289 624Q291 624 302 624T323 623H363Q380
611 382 605L385 601V244H429Q471 244 477 241Q495 233 495 206T477 171Q471 168 429 168H385V76H425Q463 76 469 73Q478 68 484 59Q487 52 487 38Q487 10 465 1H235ZM314 244V554L117 245L215 244H314Z" />
<glyph unicode="5" glyph-name="five" horiz-adv-x="525" d="M245 65Q301 65 344 98T387 189Q387 236 363 268T301 310Q289 313 273 313Q197 313 157 264Q150 254 138 249H120Q102 249 97 251Q86 258 82 268Q81 272 81 430Q81 587 82 591Q88 605 103 610H108Q112
610 120 610T138 610T163 610T192 611T225 611T260 611H415Q416 610 419 608T424 604T427 601T431 598T433 593T435 588T436 581T437 573Q437 547 415 536L289 535H164V363Q165 363 175 368Q218 389 276 389Q315 389 349 374Q402 354 437 304T472 187Q472 173 471
167Q461 92 399 41T245 -10Q111 -10 64 84Q52 113 52 137T67 176T104 191Q125 191 140 177T156 141Q156 123 148 112Q146 108 146 107T154 98T167 86Q202 65 245 65Z" />
<glyph unicode="6" glyph-name="six" horiz-adv-x="525" d="M319 622Q378 622 416 593T454 510Q454 486 440 472T402 458Q390 458 386 459Q350 472 350 510Q350 515 353 522T356 536Q356 540 342 543T318 546Q303 546 283 541Q237 530 199 491T143 398Q134 362
133 357V353L144 361Q208 402 285 402Q303 402 319 400Q374 390 414 350Q465 299 477 233Q479 215 479 193Q479 147 465 116T420 54Q375 9 320 -5Q294 -11 263 -11Q246 -11 239 -10Q140 4 93 87T45 301Q45 395 82 465T182 579Q247 622 319 622ZM269 326Q218 326
179 298T136 223Q136 181 160 135Q188 81 237 68Q246 66 265 66Q299 66 318 75T360 107Q395 144 395 197Q395 228 387 247T356 289Q335 310 317 318T269 326Z" />
<glyph unicode="7" glyph-name="seven" horiz-adv-x="525" d="M204 -10Q162 -10 162 40Q162 84 168 129Q194 321 310 477Q350 527 358 535H128V524Q128 506 119 497Q111 489 86 489Q66 489 62 491Q51 496 46 508Q44 513 44 557Q44 602 46 606Q53 627 88 627Q114
627 125 611H458Q475 599 478 591Q480 584 480 573Q480 558 478 553T459 533Q427 501 408 477Q252 290 246 49Q246 43 246 37T246 27T245 22Q238 -10 204 -10Z" />
<glyph unicode="8" glyph-name="eight" horiz-adv-x="525" d="M58 460Q58 524 117 572T254 621Q290 621 298 620Q370 609 418 564T466 460Q466 416 435 383T359 334Q358 333 356 333T352 331L350 330L357 328Q364 325 375 319T400 305T428 285T453 258T472 223T479
179T477 148Q464 80 405 35T262 -10T119 35T47 148Q45 156 45 179T52 222T70 257T96 284T123 305T148 319T167 328L174 330Q174 331 168 333T155 339T145 343Q104 362 81 393T58 460ZM382 458Q382 494 347 520T263 546T178 521T142 458Q142 418 180 393T262 368T344
393T382 458ZM262 66Q319 66 357 99T396 178Q396 190 391 207Q380 244 345 268T263 292Q206 292 167 258T128 178Q128 157 137 137Q172 66 262 66Z" />
<glyph unicode="9" glyph-name="nine" horiz-adv-x="525" d="M392 259Q334 210 236 210Q193 210 165 222T109 262Q59 312 47 379Q46 386 46 411Q46 460 58 490T99 550Q164 622 264 622Q346 622 402 564Q479 486 479 304Q479 283 477 261Q460 135 381 59Q334 14
278 -2Q249 -11 217 -11Q137 -11 98 30Q70 58 70 101Q70 124 84 138T122 153Q146 153 160 138T174 101Q174 91 168 76Q179 65 216 65Q266 65 300 93Q373 146 391 256L392 259ZM341 513Q308 546 268 546Q230 546 204 532Q129 494 129 415Q129 384 138 363Q147 343
167 323T207 294Q228 285 255 285Q297 285 330 304T379 354Q387 368 388 389Q388 404 386 413Q374 477 341 513Z" />
<glyph unicode=":" glyph-name="colon" horiz-adv-x="525" d="M193 361Q193 391 212 411T258 431Q290 431 311 412T332 361Q332 330 313 311T262 292Q230 292 212 311T193 361ZM193 70Q193 100 212 120T258 140Q290 140 311 121T332 70Q332 39 313 20T262 1Q230
1 212 19T193 70Z" />
<glyph unicode=";" glyph-name="semicolon" horiz-adv-x="525" d="M193 361Q193 391 212 411T258 431Q290 431 311 412T332 361Q332 330 313 311T262 292Q230 292 212 311T193 361ZM248 1Q193 12 193 70Q193 101 211 120T259 140Q298 140 317 110T337 33Q337 -45
280 -100Q241 -139 214 -139Q203 -139 189 -125Q175 -110 175 -97T180 -79T199 -67Q232 -50 249 -17Q256 -3 256 0Q252 1 248 1Z" />
<glyph unicode="&lt;" glyph-name="less" horiz-adv-x="525" d="M468 90Q468 75 457 65T433 55Q426 55 419 58Q413 61 243 168T68 280Q57 291 57 306T68 332Q72 335 241 442T416 553Q424 557 432 557Q446 557 457 547T468 522Q468 508 456 496Q454 494 305 399L158
306L305 213Q454 118 456 116Q468 104 468 90Z" />
<glyph unicode="=" glyph-name="equal" horiz-adv-x="525" d="M38 382Q38 408 67 417H457Q487 407 487 382T461 348H64Q38 357 38 382ZM67 195Q38 204 38 230Q38 255 62 264Q66 265 264 265H461Q487 250 487 230Q487 205 457 195H67Z" />
<glyph unicode="&gt;" glyph-name="greater" horiz-adv-x="525" d="M57 522Q57 538 66 547T90 557Q98 557 105 554Q111 551 281 444T456 332Q468 320 468 306T456 280Q452 276 282 169T105 58Q98 55 91 55Q78 55 68 65T57 90T68 116Q70 118 219 213L366 306L219
399Q70 494 68 496Q57 507 57 522Z" />
<glyph unicode="?" glyph-name="question" horiz-adv-x="525" d="M62 493Q62 553 117 585T253 617Q367 617 421 572Q462 539 462 490Q462 442 423 409Q413 401 394 390Q315 347 296 287Q294 278 293 247V217Q285 202 277 198T246 194Q224 194 217 197T201 215V245Q201
280 206 300Q229 393 351 456Q366 464 375 477Q377 482 377 490T375 503Q353 540 251 540Q182 540 159 517Q166 503 166 490Q166 469 152 454T114 438T77 453T62 493ZM190 58Q190 83 206 99T249 115Q273 113 288 98T304 58Q304 32 288 16T246 0T205 16T190 58Z"
/>
<glyph unicode="@" glyph-name="at" horiz-adv-x="525" d="M44 306Q44 429 112 517T283 616Q289 617 302 617Q325 617 346 611Q481 576 481 321Q481 203 421 143Q381 103 332 103Q281 103 244 142T193 234Q183 267 183 307Q183 384 217 434Q263 508 332 508Q360
508 378 498Q364 518 357 523Q332 541 304 541Q240 541 185 488Q115 416 115 305Q115 195 185 123Q226 83 277 73Q285 71 306 71Q360 71 397 105Q409 115 436 115Q458 115 462 113Q481 106 481 86Q481 73 468 61Q416 9 343 -3Q328 -6 305 -6Q291 -6 286 -5Q183
6 114 93T44 306ZM410 263T410 306T393 384T348 429Q343 431 333 431Q319 431 311 427Q285 414 270 380T254 305Q254 262 271 227T316 182Q320 180 332 180T348 182Q376 193 393 228Z" />
<glyph unicode="A" glyph-name="A" horiz-adv-x="525" d="M454 76Q479 76 487 68T496 38Q496 11 478 3Q474 1 395 1H317Q295 8 295 38Q295 53 297 57Q303 68 308 71T333 76L348 77V78Q348 80 341 112L334 143H190L183 112Q176 80 176 78Q175 76 178 76Q180 76
191 76Q210 75 215 72T227 57Q229 53 229 38Q229 9 208 1H129Q50 1 46 3Q28 11 28 38Q28 60 36 68T70 76Q89 76 89 78Q90 79 117 205T173 461T205 599Q210 614 228 621Q234 623 262 623T295 621Q315 614 319 599Q322 591 350 461T406 205T435 78Q435 76 454 76ZM263
519Q263 526 262 527Q261 527 261 520Q261 492 234 354Q210 232 206 221Q206 219 262 219T318 221Q314 232 290 354Q263 491 263 519Z" />
<glyph unicode="B" glyph-name="B" horiz-adv-x="525" d="M39 1Q26 6 22 13T17 38Q17 54 19 59Q25 68 34 73Q40 76 61 76H84V535H61Q40 535 34 538Q24 543 19 553Q17 557 17 573Q17 591 21 598T39 610Q40 611 179 611Q320 610 332 607Q332 607 339 605Q373 596
401 574T444 521Q461 488 461 454Q461 413 436 378T369 325L358 320Q409 310 445 267T482 169Q482 140 472 114Q457 71 424 42T345 3L334 1H39ZM309 533Q302 535 234 535H168V356H230Q292 357 299 359Q333 368 355 393T377 452Q377 482 358 505T309 533ZM398 176Q396
216 372 245T315 279Q310 280 237 280H168V76H239Q316 77 327 81Q329 82 334 84Q363 94 380 118T398 176Z" />
<glyph unicode="C" glyph-name="C" horiz-adv-x="525" d="M281 -11Q173 -11 107 86T40 305Q40 428 102 518T257 620Q273 622 281 622Q343 622 394 584Q396 583 399 581Q403 578 404 578Q409 585 414 594Q424 612 431 617T452 622Q474 622 482 603Q484 598 484
508Q484 417 482 412Q478 400 470 397T442 393Q417 393 409 402Q400 409 400 420Q400 447 381 485Q350 546 295 546Q242 546 197 501Q124 430 124 306Q124 193 185 123Q233 66 296 66Q341 66 370 99T400 178Q400 196 410 202T442 209Q466 209 475 202T484 172Q480
96 422 43T281 -11Z" />
<glyph unicode="D" glyph-name="D" horiz-adv-x="525" d="M38 1Q16 8 16 38Q16 62 32 73Q39 76 58 76H78V535H58Q40 535 32 538Q16 549 16 573Q16 587 17 591Q23 605 38 610Q39 611 166 611Q292 610 301 608Q368 593 415 530Q485 438 485 300Q485 163 414 77Q366
17 301 3L291 1H38ZM400 301Q400 390 362 457T267 534Q261 535 210 535H162V76H214L267 77Q327 91 363 152T400 301Z" />
<glyph unicode="E" glyph-name="E" horiz-adv-x="525" d="M19 573Q19 603 41 610H47Q53 610 63 610T88 610T121 610T160 611T204 611T251 611H458Q475 598 478 591Q480 586 480 526T478 461Q473 449 462 444Q458 442 438 442Q413 442 405 450Q398 457 397 463T396
501V535H173V355H290V371Q290 394 299 403T332 412Q350 412 356 409Q367 404 372 392Q374 387 374 317T372 242Q367 230 356 225Q352 223 332 223Q307 223 299 231Q290 240 290 263V279H173V76H418V118Q418 161 420 166Q425 178 436 183Q442 186 460 186T484 183Q495
178 500 166Q502 161 502 93T500 20Q494 7 480 1H41Q19 9 19 38Q19 54 22 60T36 73Q42 76 65 76H89V535H65Q42 535 36 538Q19 548 19 573Z" />
<glyph unicode="F" glyph-name="F" horiz-adv-x="525" d="M22 573Q22 603 44 610H50Q56 610 66 610T91 610T125 610T164 611T208 611T257 611H468Q485 598 488 591Q490 586 490 526T488 461Q483 449 472 444Q468 442 448 442Q423 442 415 450Q408 457 407 463T406
501V535H179V344H300V360Q300 383 309 392T342 401Q360 401 366 398Q377 393 382 381Q384 376 384 306T382 231Q377 219 366 214Q362 212 342 212Q317 212 309 220Q300 229 300 252V268H179V76H249Q259 70 262 68T268 59T271 38Q271 20 267 13T249 1H44Q22 9 22
38Q22 54 25 60T39 73Q45 76 69 76H95V535H69Q45 535 39 538Q22 548 22 573Z" />
<glyph unicode="G" glyph-name="G" horiz-adv-x="525" d="M364 28Q325 -11 260 -11Q190 -11 132 46T50 197Q38 248 38 306Q38 363 50 414Q72 499 122 555T237 620Q253 622 261 622Q318 622 365 585L371 581Q372 581 380 596Q390 612 396 617T417 622Q439 622 447
603Q449 598 449 508Q449 417 447 412Q443 400 435 397T407 393Q382 393 374 401Q366 408 364 426Q361 459 347 489Q320 546 271 546Q263 546 258 545Q198 534 160 464T121 308Q121 229 150 165T229 75Q249 65 271 65Q314 65 340 116Q362 162 362 195Q362 196 333
196L304 197Q291 202 287 208T282 234T286 259T304 272H474Q496 259 496 234Q496 214 488 206T461 196H449V21Q442 7 435 3T407 -1Q384 -1 378 4T364 28Z" />
<glyph unicode="H" glyph-name="H" horiz-adv-x="525" d="M39 1Q26 6 22 12T17 38Q17 55 19 59Q24 68 33 73Q40 76 60 76H81V535H60Q40 535 33 538Q16 546 16 571Q16 602 36 609Q41 611 125 611H208Q218 605 221 603T227 594T230 573Q230 558 227 552Q222 543
213 538Q206 535 186 535H165V356H359V535H338Q318 535 311 538Q302 543 297 552Q295 556 295 573Q295 592 299 598T317 611H486Q496 605 499 603T505 594T508 573Q508 558 505 552Q500 543 491 538Q484 535 464 535H443V76H464Q484 76 491 73Q500 68 505 59Q508
53 508 38Q508 20 504 13T486 1H317Q304 6 300 12T295 38Q295 55 297 59Q302 68 311 73Q318 76 338 76H359V280H165V76H186Q206 76 213 73Q222 68 227 59Q230 53 230 38Q230 20 226 13T208 1H39Z" />
<glyph unicode="I" glyph-name="I" horiz-adv-x="525" d="M95 1Q82 7 77 14T72 38Q72 65 90 73Q96 76 157 76H220V535H157Q96 535 90 538Q72 546 72 573Q72 603 93 610Q97 611 264 611H430Q432 609 436 606T442 602T446 598T449 592T451 584T452 573Q452 546 434
538Q428 535 367 535H304V76H367Q428 76 434 73Q452 65 452 38Q452 20 448 14T430 1H95Z" />
<glyph unicode="J" glyph-name="J" horiz-adv-x="525" d="M202 543T202 573T224 610H228Q231 610 237 610T251 610T269 610T291 611T315 611T342 611H457Q466 605 469 602T476 592T479 573Q479 549 462 538Q454 535 432 535H408V328Q408 159 408 133T402 93Q385
47 338 18T229 -11Q159 -11 115 12T59 78Q57 84 57 100Q57 125 71 139T108 154Q129 154 144 140T159 102Q159 93 155 79Q188 65 228 65Q290 65 318 106Q323 115 323 139T324 329V535H274L224 536Q202 543 202 573Z" />
<glyph unicode="K" glyph-name="K" horiz-adv-x="525" d="M41 1Q18 8 18 38Q18 62 35 73Q42 76 61 76H81V535H61Q42 535 35 538Q18 549 18 573Q18 602 41 610Q42 611 118 611H193Q214 599 214 573Q214 549 198 538Q191 535 172 535H152V421Q152 344 152 326T153
309L242 422L329 534Q312 539 305 546T298 573Q298 600 316 608Q322 611 392 611H463Q472 605 475 602T482 592T485 573Q485 549 468 538Q461 535 441 535H420L281 357L436 77L454 76Q473 75 478 73Q495 62 495 38Q495 10 473 1H345Q332 6 328 12T323 38Q323 59
329 66T355 77L233 296L152 192V76H172Q191 76 198 73Q214 62 214 38Q214 9 193 1H41Z" />
<glyph unicode="L" glyph-name="L" horiz-adv-x="525" d="M44 609Q49 611 154 611Q257 611 263 608Q281 600 281 573T263 538Q257 535 222 535H185V76H404V118Q404 161 406 167Q411 179 423 184Q428 186 446 186T469 184Q481 179 486 167Q488 161 488 93T486 20Q480
7 466 1L258 0H147Q89 0 68 0T43 2T35 7Q28 14 27 18T25 38T26 58T35 69Q44 76 76 76H101V535H76Q44 535 35 542Q28 549 27 553T25 573T27 594Q34 606 44 609Z" />
<glyph unicode="M" glyph-name="M" horiz-adv-x="525" d="M50 535Q28 537 20 544T12 573Q12 602 32 609Q37 611 91 611Q152 611 162 605T178 587Q182 580 220 453Q261 313 261 293Q261 289 262 288Q263 288 263 292Q263 311 298 434T346 588Q351 598 362 605Q373
611 435 611Q488 611 494 608Q512 600 512 573Q512 552 504 545T474 535H459V76H474Q496 74 504 67T512 38Q512 11 494 3Q490 1 424 1Q357 1 353 3Q335 11 335 38Q335 59 343 66T373 76H388V302Q388 512 387 519Q380 477 347 366Q310 237 304 228Q292 204 262 204T220
228Q214 237 177 366Q144 477 137 519Q136 512 136 302V76H151Q173 74 181 67T189 38Q189 11 171 3Q167 1 101 1Q34 1 30 3Q12 11 12 38Q12 59 20 66T50 76H65V535H50Z" />
<glyph unicode="N" glyph-name="N" horiz-adv-x="525" d="M43 1Q30 6 26 12T21 38Q21 55 23 59Q28 68 37 73Q44 76 64 76H85V535H64Q44 535 37 538Q20 546 20 571Q20 602 40 609Q45 611 105 611T170 609Q192 605 202 581Q204 572 231 497Q354 142 365 95L368 84V535H347Q328
535 320 538Q311 543 306 552Q304 556 304 573Q304 592 308 598T326 611H482Q492 605 495 603T501 594T504 573Q504 558 501 552Q496 543 487 538Q479 535 460 535H439V25Q431 8 421 3Q415 0 389 0Q359 0 355 1Q331 6 322 31L293 115Q171 468 159 517L156 528V76H177Q196
76 204 73Q213 68 218 59Q221 53 221 38Q221 20 217 13T199 1H43Z" />
<glyph unicode="O" glyph-name="O" horiz-adv-x="525" d="M102 588Q139 621 240 621Q323 621 335 620Q393 613 422 588Q468 543 468 306Q468 68 422 23Q398 2 363 -4T262 -10T162 -4T102 23Q56 68 56 306Q56 543 102 588ZM363 513Q351 532 330 538T268 546Q225
546 204 542T167 521Q140 490 140 317V300Q140 178 151 133Q158 103 171 89T214 69Q238 65 262 65Q314 65 339 79T373 133Q384 178 384 300Q384 415 379 448Q374 492 363 513Z" />
<glyph unicode="P" glyph-name="P" horiz-adv-x="525" d="M41 1Q19 9 19 38Q19 54 22 60T36 73Q42 76 65 76H89V535H65Q42 535 36 538Q19 548 19 573Q19 603 41 610H49Q57 610 70 610T100 610T136 611T175 611Q204 611 237 611T291 610T314 610Q390 603 441 537Q480
485 480 421Q480 404 478 390Q466 324 421 282Q401 262 378 251Q351 236 314 231Q308 230 239 230H173V76H197Q220 76 227 73Q244 62 244 38Q244 10 222 1H41ZM396 421Q396 463 369 493T300 533Q294 534 233 535H173V306H233Q294 307 300 308Q341 318 368 348T396
421Z" />
<glyph unicode="Q" glyph-name="Q" horiz-adv-x="525" d="M454 -118Q454 -129 441 -138H377Q370 -136 363 -129Q361 -127 333 -69L304 -11H254Q189 -10 165 -5Q105 6 84 48Q71 74 65 120T57 202T56 306Q56 543 102 588Q139 621 240 621Q323 621 335 620Q393 613
422 588Q468 543 468 306V282Q468 124 447 66Q433 23 394 6L424 -53Q454 -112 454 -118ZM337 534Q309 545 251 545T170 522Q156 508 149 470T141 400T140 306Q140 228 142 202Q146 139 155 114T187 77Q217 65 262 65H266L264 70Q261 75 256 85T247 105Q227 145
227 151Q227 166 242 170Q244 171 276 171Q306 171 310 168Q312 167 332 127L353 88Q355 88 358 93Q370 109 376 146T383 215T384 306Q384 382 382 410Q378 472 369 497T337 534Z" />
<glyph unicode="R" glyph-name="R" horiz-adv-x="525" d="M39 1Q26 6 22 12T17 38Q17 55 19 59Q24 68 33 73Q40 76 60 76H81V535H60Q40 535 33 538Q16 546 16 571Q16 602 36 609Q41 611 148 611Q268 611 294 605Q341 593 376 562T425 488Q432 468 432 440Q432
394 410 359Q393 329 366 310L358 303Q387 273 399 239Q406 216 406 161V137Q406 77 421 68Q426 65 429 65Q434 65 436 73T438 94T441 112Q446 123 456 127Q462 130 480 130T504 127Q520 120 522 100Q522 54 498 22T434 -11Q341 -11 324 93Q322 101 322 154L321
209L318 217Q304 257 257 267Q252 268 207 268H165V76H186Q206 76 213 73Q222 68 227 59Q230 53 230 38Q230 20 226 13T208 1H39ZM260 532Q252 534 208 535H165V344H208Q252 345 260 347Q288 352 310 368T341 406Q348 421 348 440Q348 476 323 501T260 532Z" />
<glyph unicode="S" glyph-name="S" horiz-adv-x="525" d="M52 454Q52 520 103 570T229 621Q266 621 274 620Q326 610 360 588L371 581Q384 613 397 619Q404 622 412 622Q435 622 443 603Q445 598 445 515T443 427Q441 421 436 417Q428 408 403 408T370 417Q361
424 361 434Q361 447 354 466Q330 546 238 546Q199 546 172 527T134 477Q132 469 132 458Q132 434 148 412Q157 398 176 387Q193 376 267 359T349 339Q389 325 418 296T461 229Q472 201 472 164Q469 93 423 46T311 -10Q304 -11 287 -11Q240 -11 200 -1T143 19L126
29Q126 26 119 13T109 -2Q100 -11 84 -11Q62 -11 54 8Q52 13 52 95V135Q52 173 53 180T61 194Q70 203 95 203Q119 203 127 194Q136 186 136 168Q143 66 284 66Q326 66 350 85Q391 115 391 165T351 245Q335 256 322 260Q318 262 254 277T185 293Q128 307 90 350T52
454Z" />
<glyph unicode="T" glyph-name="T" horiz-adv-x="525" d="M129 19T129 38T133 63T151 76H220V535H110V501Q110 470 109 464T101 450Q93 442 68 442Q48 442 44 444Q33 449 28 461Q26 466 26 527L27 589Q35 606 49 610H55Q61 610 72 610T97 610T131 610T170 611T215
611T264 611H476Q493 598 496 591Q498 586 498 526T496 461Q491 449 480 444Q476 442 456 442Q431 442 423 450Q416 457 415 463T414 501V535H304V76H374Q384 70 387 68T393 59T396 38Q396 20 392 13T374 1H151Q138 6 134 12Z" />
<glyph unicode="U" glyph-name="U" horiz-adv-x="525" d="M506 611Q515 605 518 602T525 592T528 573Q528 549 511 538Q504 535 481 535H457V364Q457 189 456 182Q450 119 415 70T325 1Q294 -11 262 -11Q189 -11 132 44T68 182Q67 189 67 364V535H43Q20 535 14
538Q-3 548 -3 573Q-3 603 19 610Q20 611 111 611H200Q209 605 212 602T219 592T222 573Q222 549 205 538Q198 535 175 535H151V359Q151 333 151 291Q152 177 156 162Q157 160 157 159Q165 125 188 101T240 68Q246 66 262 66T284 68Q313 76 336 100T367 159Q371
175 371 191T373 359V535H349Q326 535 320 538Q303 548 303 573Q303 586 305 593T311 603T325 611H506Z" />
<glyph unicode="V" glyph-name="V" horiz-adv-x="525" d="M217 573Q217 550 210 543T179 535H164Q166 530 172 503T187 438T201 382Q258 137 261 94L262 84V88Q263 91 263 94Q266 136 323 380Q327 398 336 435T351 501T360 535H345Q323 535 316 542T308 573Q308
592 312 598T330 611H484Q491 607 493 605T499 599T504 588T505 573Q505 558 503 554Q497 542 491 539T465 535H447L384 278Q321 19 319 14Q312 0 298 -5Q293 -7 262 -7T226 -5Q212 0 205 14Q203 19 140 278L78 535H59Q40 535 34 538T21 554Q19 558 19 573Q19 603
41 610Q42 611 119 611H195Q205 605 208 603T214 594T217 573Z" />
<glyph unicode="W" glyph-name="W" horiz-adv-x="525" d="M381 535Q355 535 347 542T338 573Q338 600 356 608Q362 611 425 611T494 608Q512 600 512 573Q512 538 482 535H474L439 276Q411 63 407 37T397 3Q382 -6 380 -7H359Q338 -7 333 -5Q321 0 313 13Q310
20 301 62Q263 238 263 275Q263 283 262 283Q261 282 261 274Q261 236 223 62Q214 20 211 13Q203 0 191 -5Q186 -7 165 -7H144Q142 -6 127 3Q121 10 117 36T85 276L50 535H42Q12 538 12 573Q12 603 33 610Q37 611 101 611Q162 611 168 608Q186 600 186 573Q186
550 178 543T143 535H122V531Q135 462 154 278Q167 171 172 96V84L173 102Q176 165 195 258Q210 333 215 346Q227 367 262 367T309 346Q314 333 329 258Q348 165 351 102L352 84V96Q357 171 370 278Q389 462 402 531V535H381Z" />
<glyph unicode="X" glyph-name="X" horiz-adv-x="525" d="M50 1Q28 9 28 38Q28 54 31 60T45 73Q51 76 73 76H96L214 324Q215 327 162 431L108 535H85Q64 535 56 538Q39 546 39 571Q39 602 59 609Q64 611 141 611H218Q225 607 227 605T233 599T238 588T239 573Q239
538 210 535Q202 535 202 534T215 507T243 454L257 428L307 535H298Q266 538 266 573Q266 590 270 596T289 611H366Q442 611 448 608Q466 600 466 573Q466 550 457 543T421 535H398L299 327Q299 323 362 201L426 77L449 76Q471 76 477 73Q495 65 495 38T477 3Q473
1 395 1H317Q295 8 295 38Q295 73 325 76L334 77Q333 78 314 117T276 196L257 235L239 196Q221 157 204 118T186 77Q190 76 196 76Q214 74 221 66T228 38Q228 21 224 14T206 1H50Z" />
<glyph unicode="Y" glyph-name="Y" horiz-adv-x="525" d="M178 1Q165 6 161 12T156 38Q156 55 158 59Q163 68 172 73Q180 76 199 76H220V245L86 535H64Q44 535 36 538Q20 549 20 573Q20 587 21 591Q27 605 42 610Q43 611 121 611H198Q207 605 210 602T217 592T220
573Q220 539 188 535Q179 535 179 534Q183 524 189 513Q261 353 261 332Q261 329 262 329T263 332Q263 354 333 508L345 534Q345 535 336 535Q318 537 312 545T305 573Q305 586 307 593T313 603T327 611H483Q495 604 500 597T505 573Q505 549 488 538Q481 535 460
535H438L304 245V76H325Q344 76 352 73Q361 68 366 59Q369 53 369 38Q369 20 365 13T347 1H178Z" />
<glyph unicode="Z" glyph-name="Z" horiz-adv-x="525" d="M71 1Q57 7 53 13T48 39Q48 55 50 60Q51 66 197 282L366 535H144V501Q144 470 143 464T135 450Q127 442 102 442Q82 442 78 444Q67 449 62 461Q60 466 60 527L61 589Q69 606 83 610H88Q93 610 102 610T124
610T154 610T188 611T227 611T270 611H454Q456 609 461 606T468 601T472 595T475 586T476 572Q476 556 474 551Q473 545 327 329L158 76H397V120Q397 164 399 169Q404 181 415 186Q421 189 439 189T463 186Q474 181 479 169Q481 164 481 95Q481 25 479 20Q473 7
459 1H71Z" />
<glyph unicode="[" glyph-name="bracketleft" horiz-adv-x="525" d="M483 -18T483 -45T461 -82H237Q221 -75 214 -58V305Q214 669 216 673Q221 688 234 692Q239 694 350 694H461Q462 693 465 691T470 687T473 684T477 681T479 676T481 671T482 664T483 656Q483
628 465 621Q459 618 379 618H298V-7H379Q459 -7 465 -10Q483 -18 483 -45Z" />
<glyph unicode="\" glyph-name="backslash" horiz-adv-x="525" d="M58 659Q58 673 67 683T93 694Q114 694 125 673Q132 659 297 314T464 -36Q466 -44 466 -48Q466 -62 456 -72T431 -83Q410 -83 399 -62Q391 -47 226 298T60 648Q58 656 58 659Z" />
<glyph unicode="]" glyph-name="bracketright" horiz-adv-x="525" d="M64 -82Q41 -73 41 -45T59 -10Q65 -7 145 -7H226V618H145Q65 618 59 621Q41 628 41 656Q41 685 61 692Q66 694 177 694H288Q305 682 310 669V-58Q304 -74 288 -82H64Z" />
<glyph unicode="^" glyph-name="asciicircum" horiz-adv-x="525" d="M253 609Q256 611 264 611Q272 610 343 574Q359 566 378 556T407 540T418 534Q428 528 428 512Q428 502 419 486Q410 469 400 464Q392 460 386 460Q381 460 375 463Q374 464 366 468T343 481T316
496L262 526L208 496Q195 489 181 481T159 469T149 463Q143 460 138 460Q132 460 124 464Q114 469 105 486Q96 502 96 512Q96 528 106 534Q109 536 178 571T253 609Z" />
<glyph unicode="_" glyph-name="underscore" horiz-adv-x="525" d="M57 -86T57 -60T86 -25H438Q468 -35 468 -60T438 -95H86Q57 -86 57 -60Z" />
<glyph unicode="`" glyph-name="grave" horiz-adv-x="525" d="M320 414Q320 388 303 373T261 357Q246 357 235 362Q208 373 192 404T176 479Q176 572 244 640Q272 668 298 679Q302 681 310 681Q322 680 337 665Q350 651 350 641Q350 623 329 610Q297 594 276 561T252
485V471Q253 471 256 471T262 472Q285 472 302 456T320 414Z" />
<glyph unicode="a" glyph-name="a" horiz-adv-x="525" d="M126 306Q104 306 89 321T74 359Q74 388 95 408Q126 439 211 439Q268 439 276 438Q335 428 378 393T430 306Q431 301 431 190V81Q472 76 478 76Q508 75 515 67Q524 57 524 38Q524 11 506 3Q502 1 466 1Q422
1 402 5T366 24Q363 27 360 31T355 36L345 30Q284 -6 205 -6Q138 -6 93 37T48 141Q48 176 69 202T127 244T202 269T285 282Q327 285 342 285H347V290Q347 315 325 335T267 362Q258 363 224 363Q189 363 185 362H179Q175 340 172 333Q158 306 126 306ZM347 175V211H339Q210
208 153 171Q132 157 132 140Q132 110 159 90T224 70Q269 70 302 87T344 133Q346 139 347 175Z" />
<glyph unicode="b" glyph-name="b" horiz-adv-x="525" d="M293 -6Q226 -6 174 38Q171 16 164 9Q156 1 131 1Q111 1 107 3Q95 9 90 23L89 279V535H58L27 536Q4 543 4 573Q4 602 27 610Q28 611 90 611Q149 611 155 608Q166 603 171 591Q173 586 173 491V396L182
402Q217 424 256 431Q280 437 309 437Q360 437 407 403Q429 386 441 369Q492 308 492 217Q492 189 491 185Q481 121 450 79Q422 40 381 17T293 -6ZM409 215Q409 274 375 317T283 361Q249 361 220 343T177 297L173 290V167Q189 123 212 97T278 70Q330 70 369 111T409
215Z" />
<glyph unicode="c" glyph-name="c" horiz-adv-x="525" d="M291 -6Q201 -6 134 57T66 216Q66 296 119 361Q175 427 262 438Q266 439 273 439Q275 440 293 440Q349 440 381 434T433 409Q454 388 454 359Q454 337 439 322T402 306Q381 306 366 321T350 357V362L340
363Q339 363 326 363T303 364Q280 364 266 362Q215 351 183 312T151 215Q151 152 200 111T313 70Q364 70 382 122Q388 137 395 141T424 146Q443 146 447 144Q466 137 466 117Q466 106 456 86Q410 -6 291 -6Z" />
<glyph unicode="d" glyph-name="d" horiz-adv-x="525" d="M31 216Q31 305 87 371T230 437Q292 437 342 405L351 399V535H320L289 536Q266 543 266 573Q266 602 289 610Q290 611 352 611Q411 611 417 608Q427 603 435 586V76H498Q520 63 520 38Q520 10 498 1H436Q373
1 369 3Q351 11 351 34V43L342 36Q288 -6 223 -6Q184 -6 151 10Q97 35 64 89T31 216ZM115 215Q115 157 149 114T235 70Q303 70 339 142Q342 148 346 157T351 170V290Q334 340 273 358Q261 361 244 361Q233 361 228 360Q180 352 148 312T115 215Z" />
<glyph unicode="e" glyph-name="e" horiz-adv-x="525" d="M248 439L258 440Q268 440 274 440Q359 438 407 386T463 247Q464 240 464 228Q464 211 459 204T442 190L288 189H135L138 179Q153 132 198 102T303 71Q362 71 382 127Q387 138 398 143Q404 146 422 146T446
143Q464 135 464 116Q464 106 453 85Q432 43 387 19T285 -6Q210 -6 149 34T62 142Q48 176 48 217Q48 279 81 333T170 416Q205 433 248 439ZM377 264Q368 307 350 330T294 362Q288 363 264 363Q215 363 176 324Q150 299 139 264H377Z" />
<glyph unicode="f" glyph-name="f" horiz-adv-x="525" d="M43 395Q44 412 48 417T66 431H176V461Q176 500 182 518Q197 561 244 589T353 617Q398 614 420 590Q437 571 437 548Q437 527 423 513T387 499Q369 499 355 510T338 537V541H328Q275 536 261 494Q260 490
260 460V431H327Q392 431 398 428Q416 421 416 393T398 358Q392 355 327 355H260V76H319Q377 76 383 73Q401 65 401 38Q401 20 397 14T379 1H58Q44 7 40 13T35 38Q35 65 53 73Q59 76 117 76H176V355H121Q67 355 61 358Q43 366 43 395Z" />
<glyph unicode="g" glyph-name="g" horiz-adv-x="525" d="M60 274Q60 342 110 389T233 436Q278 436 316 417L329 410L338 416Q384 442 427 442Q462 442 485 426T509 381Q509 361 496 347T462 332Q435 332 420 358Q417 365 415 365Q414 364 410 364Q403 363 383
355Q406 320 406 274Q406 208 357 160T233 112Q192 112 155 128L146 133Q142 123 142 115Q142 98 151 85T175 71Q182 72 187 70Q188 70 195 70T218 70T254 69Q326 68 352 64Q416 52 455 18T495 -76Q495 -124 458 -162Q389 -229 262 -229T66 -162Q28 -122 29 -73Q32
-29 55 5Q67 23 86 39L91 43L87 51Q70 80 70 117Q70 141 89 183L83 194Q60 232 60 274ZM145 274Q145 235 169 211T233 187Q287 187 313 235Q321 254 321 274Q321 314 296 338T230 362Q227 362 223 362T217 361Q186 355 166 332T145 274ZM320 -5Q312 -4 200 -4Q166
-4 153 -7T125 -26Q102 -49 102 -78Q102 -88 108 -99Q154 -154 261 -154Q315 -154 363 -136T420 -89Q422 -83 422 -78Q422 -55 406 -37Q385 -13 320 -5Z" />
<glyph unicode="h" glyph-name="h" horiz-adv-x="525" d="M4 38Q4 65 27 76H89V535H58L27 536Q4 543 4 573Q4 602 27 610Q28 611 90 611Q149 611 155 608Q166 603 171 591Q173 586 173 489Q173 394 175 394Q189 394 222 413T269 434Q278 436 306 436Q406 436 429
347Q434 328 435 246Q435 217 435 198V76H498Q520 63 520 38Q520 10 498 1H308Q295 6 291 13T286 38Q286 54 288 59Q294 68 303 73Q309 76 329 76H351V188Q351 304 350 309Q347 337 333 349T288 361Q233 361 196 316Q183 298 176 274L174 264L173 170V76H236Q258
63 258 38Q258 10 236 1H27Q4 8 4 38Z" />
<glyph unicode="i" glyph-name="i" horiz-adv-x="525" d="M202 559Q202 582 219 597T260 612Q282 612 299 597T317 560Q317 538 300 523T260 507Q235 507 219 522T202 559ZM72 38Q72 55 76 62T94 76H233V355H167L102 356Q80 363 80 393T102 430Q103 431 200 431H295Q312
418 315 411Q317 406 317 241V76H378Q438 76 444 73Q462 65 462 38Q462 20 458 14T440 1H94Q72 8 72 38Z" />
<glyph unicode="j" glyph-name="j" horiz-adv-x="525" d="M261 559Q261 582 278 597T319 612Q341 612 358 597T376 560T359 523T320 507Q295 507 278 522T261 559ZM100 -91Q123 -91 137 -106T152 -144V-150L160 -151H193Q219 -151 226 -149Q249 -142 267 -121Q281
-100 286 -82Q291 -67 291 -40T292 151V355H218L145 356Q123 364 123 393Q123 423 145 430H148Q151 430 156 430T169 430T185 430T205 431T227 431T251 431H354Q371 418 374 411Q376 406 376 176Q376 -67 371 -88Q351 -159 299 -194Q253 -228 180 -228Q130 -226
101 -215T56 -177Q49 -162 48 -148Q48 -123 62 -107T100 -91Z" />
<glyph unicode="k" glyph-name="k" horiz-adv-x="525" d="M275 355Q249 355 241 362T232 393Q232 420 250 428Q256 431 359 431H464Q471 427 473 425T479 419T484 408T485 393Q485 364 464 356L431 355H398L293 254L427 76H486Q493 72 495 70T501 64T506 53T507
38Q507 9 486 1H314Q292 8 292 38Q292 62 308 73Q312 75 326 76L338 77L290 140Q279 154 267 171T248 196L242 204L207 171L173 139V76H206Q238 76 244 73Q262 65 262 38T244 3Q240 1 138 1Q35 1 31 3Q13 11 13 38T31 73Q37 76 69 76H102V535H69Q37 535 31 538Q13
546 13 573Q13 588 15 593Q23 606 34 610Q38 611 95 611Q149 611 155 608Q166 604 170 593L173 589V413L174 237L295 355H275Z" />
<glyph unicode="l" glyph-name="l" horiz-adv-x="525" d="M51 573Q51 603 73 610H76Q79 610 84 610T97 610T113 610T133 611T155 611T179 611H282Q299 599 304 586V76H452Q461 70 464 67T471 57T474 38Q474 10 452 1H73Q51 9 51 38Q51 51 53 58T59 68T73 76H220V535H146L73
536Q51 544 51 573Z" />
<glyph unicode="m" glyph-name="m" horiz-adv-x="525" d="M133 76Q156 74 164 67T172 38Q172 9 151 1H11Q-12 8 -12 38Q-12 61 5 73Q10 75 28 76H45V355H28Q10 356 5 358Q-12 370 -12 393Q-12 420 11 431H52Q92 431 98 428Q111 422 116 405Q167 436 200 436Q256
436 281 390L287 395Q328 436 389 436Q426 436 448 411Q471 388 478 338Q479 334 480 203V76H497Q520 74 528 67T536 38Q536 9 515 1H396Q383 6 379 13T374 38Q374 73 402 76H409V191Q409 292 408 312T401 346Q392 361 375 361Q342 361 323 333T299 264Q298 258
298 165V76H315Q338 74 346 67T354 38Q354 9 333 1H214Q201 6 197 13T192 38Q192 73 220 76H227V191Q227 292 226 312T219 346Q210 361 193 361Q160 361 141 333T117 264Q116 258 116 165V76H133Z" />
<glyph unicode="n" glyph-name="n" horiz-adv-x="525" d="M4 393Q4 420 27 431H89Q149 431 155 428Q173 420 173 399L174 394H175Q235 436 298 436Q342 436 371 423Q415 400 429 347Q434 328 435 246Q435 217 435 198V76H498Q520 63 520 38Q520 10 498 1H308Q295
6 291 13T286 38Q286 54 288 58Q293 68 303 73Q309 76 329 76H351V188Q351 304 350 309Q347 337 333 349T288 361Q233 361 196 316Q183 298 176 274L174 264L173 170V76H236Q258 63 258 38Q258 10 236 1H27Q4 8 4 38Q4 65 27 76H89V355H58L27 356Q4 363 4 393Z"
/>
<glyph unicode="o" glyph-name="o" horiz-adv-x="525" d="M116 377Q183 440 261 440Q310 440 350 419Q451 368 470 250Q472 234 472 216Q472 158 447 112Q398 15 292 -4Q276 -6 262 -6Q203 -6 151 28Q71 80 54 182Q52 198 52 216T54 250Q66 326 116 377ZM388 225Q388
282 352 323T261 364Q208 364 172 322T136 225Q136 164 171 117T262 70Q291 70 318 86T359 126Q388 170 388 225Z" />
<glyph unicode="p" glyph-name="p" horiz-adv-x="525" d="M4 393Q4 420 27 431H89Q149 431 155 428Q173 421 173 401V396L182 402Q237 437 305 437Q345 437 382 418T441 369Q492 308 492 217Q492 189 491 185Q481 121 450 79Q390 -6 291 -6Q264 -6 234 4Q229 6
206 21T174 37Q173 37 173 -54V-146H236Q258 -159 258 -184Q258 -212 236 -221H27Q4 -214 4 -184Q4 -157 27 -146H89V355H58L27 356Q4 363 4 393ZM409 215Q409 274 375 317T283 361Q249 361 220 343T177 297L173 290V167Q189 123 212 97T278 70Q330 70 369 111T409
215Z" />
<glyph unicode="q" glyph-name="q" horiz-adv-x="525" d="M34 215Q34 306 88 366T222 436Q224 436 231 436T242 437Q311 437 364 396L372 390V401Q372 419 381 428T414 437Q435 437 442 432T456 412V-146H489Q521 -146 527 -149Q545 -157 545 -184T527 -219Q523
-221 414 -221T301 -219Q283 -211 283 -184T301 -149Q307 -146 339 -146H372V-51Q372 43 371 43T362 37Q304 -6 236 -6Q157 -6 103 48T35 181Q34 189 34 215ZM117 215Q117 153 157 112T250 70Q265 70 273 72Q333 85 363 146Q372 163 372 192V215L371 263Q340 360
254 360H245Q191 353 154 314T117 215Z" />
<glyph unicode="r" glyph-name="r" horiz-adv-x="525" d="M207 431Q209 430 212 427T217 424T220 421T224 417T226 412T228 406T228 398T229 387V369Q297 437 394 437Q457 437 481 394Q487 380 487 368Q487 347 473 332T438 317Q419 317 406 328T389 358L388 361Q345
356 324 345Q285 326 260 290T230 209Q229 203 229 138V76H293Q356 76 362 73Q380 65 380 38Q380 9 359 1H47Q24 8 24 38Q24 64 47 76H145V355H96L47 356Q24 363 24 393Q24 419 47 431H207Z" />
<glyph unicode="s" glyph-name="s" horiz-adv-x="525" d="M260 70Q384 70 384 129Q384 152 351 169Q328 181 256 192Q186 204 165 212Q72 244 72 317Q72 360 103 391Q142 431 229 439Q231 439 245 439T268 440Q327 437 354 426L363 423Q364 423 371 430Q381 440
397 440Q419 440 427 421Q429 416 429 366Q429 317 427 312Q423 300 415 297T387 293Q364 293 355 299T345 324Q344 345 325 353Q306 364 257 364Q204 364 173 349Q147 337 147 317Q147 304 160 295Q183 279 253 269T357 247Q439 217 456 154Q458 146 458 129V121Q458
111 453 91Q438 45 391 20T271 -6Q200 -6 153 21Q145 26 144 26Q141 21 138 15Q126 -6 104 -6T74 13Q72 18 72 79Q72 132 73 141T81 157Q90 166 115 166Q136 166 144 160Q150 156 157 140Q180 73 260 70Z" />
<glyph unicode="t" glyph-name="t" horiz-adv-x="525" d="M407 182Q432 182 440 176T448 148Q448 83 399 39T282 -6Q224 -6 187 31Q152 66 146 128Q145 134 145 247V355H96Q49 355 43 358Q25 366 25 395Q26 412 30 417T48 431H145V481L146 532Q153 545 161 549T189
554Q205 554 211 551Q222 546 227 534Q229 529 229 480V431H405Q406 430 409 428T414 424T417 421T421 418T423 413T425 408T426 401T427 393Q427 367 405 356L317 355H229V249Q229 140 230 135Q237 70 295 70Q354 70 365 149Q366 167 375 174Q383 182 407 182Z"
/>
<glyph unicode="u" glyph-name="u" horiz-adv-x="525" d="M520 38Q520 10 498 1H436Q373 1 369 3Q356 9 351 26L342 21Q293 -5 227 -5Q119 -5 96 67Q91 82 90 101T89 227V355H58L27 356Q4 363 4 393Q4 422 27 430Q28 431 90 431Q149 431 155 428Q166 424 170 413L173
409V254L174 100Q182 70 244 70Q319 70 344 119Q349 130 350 144T351 248V355H320L289 356Q266 363 266 393Q266 420 289 431H351Q411 431 417 428Q428 423 433 411Q435 406 435 241V76H498Q520 63 520 38Z" />
<glyph unicode="v" glyph-name="v" horiz-adv-x="525" d="M478 431Q500 418 500 393Q500 365 478 356L452 355H426L374 190Q320 24 318 20Q309 2 289 -3L279 -4Q269 -4 262 -4T245 -4L235 -3Q215 2 206 20Q204 24 150 190L98 355H72L47 356Q24 363 24 392Q24 422
44 429Q49 431 132 431H215Q224 425 227 422T234 412T237 393Q237 369 220 358Q212 355 193 355H172L262 77L352 355H331Q311 355 305 358Q288 368 288 393Q288 406 290 413T296 423T310 431H478Z" />
<glyph unicode="w" glyph-name="w" horiz-adv-x="525" d="M54 355Q32 355 24 363T16 393Q16 423 37 430Q41 431 125 431Q206 431 212 428Q230 420 230 393T212 358Q206 355 174 355Q141 355 141 354L150 296Q181 110 181 89V84Q182 85 183 96Q186 128 208 208Q216
234 218 237Q222 245 245 259H264Q282 259 289 256Q301 252 309 240Q313 233 319 212Q343 128 343 92Q343 84 344 84V86Q344 88 344 91T345 97Q348 141 376 311Q383 351 383 354Q383 355 350 355Q318 355 312 358Q294 366 294 393T312 428Q318 431 401 431T490
428Q508 420 508 393Q508 372 500 364T470 355L455 354Q455 353 441 271T413 104T396 16Q390 5 378 -1Q370 -4 351 -4Q329 -4 323 -2Q302 5 296 22Q287 47 276 96T265 169V172L264 163Q262 154 260 139T256 112Q239 33 230 18Q223 4 213 0T175 -4L151 -3Q133 6
127 17L112 102Q97 188 83 270T69 354Q62 355 54 355Z" />
<glyph unicode="x" glyph-name="x" horiz-adv-x="525" d="M29 38Q29 51 32 58T38 68T51 76H117L171 149Q224 222 224 223L124 355H90Q58 355 52 358Q42 363 37 373Q35 377 35 393Q35 411 39 418T57 430Q58 431 141 431H223Q230 427 232 425T238 419T243 408T244
393Q244 358 216 355Q209 355 209 354L234 319Q259 286 260 286L308 354Q308 355 301 355Q271 358 271 393Q271 420 289 428Q295 431 376 431H459Q460 430 463 428T468 424T471 421T475 418T477 413T479 408T480 401T481 393Q481 365 463 358Q457 355 425 355H392L344
290Q295 225 295 223Q294 223 309 203T350 149L405 77L439 76Q471 76 477 73Q486 68 492 59Q495 51 495 38Q495 10 473 1H303Q281 9 281 38Q281 58 287 66T313 76Q324 76 324 77L259 173L197 77Q202 76 209 76Q228 74 235 67T242 38Q242 9 221 1H51Q38 6 34 13T29
38Z" />
<glyph unicode="y" glyph-name="y" horiz-adv-x="525" d="M236 1Q236 2 211 69T152 224T102 355H75L49 356Q26 363 26 393Q26 422 49 430Q50 431 134 431H217Q227 425 230 423T236 414T239 393Q239 378 236 372Q231 363 222 358Q214 355 197 355L179 354V353L188
330Q197 306 209 272T235 201T259 133T271 89V84L274 95Q283 141 340 315L352 354Q352 355 331 355Q312 355 304 358Q288 369 288 393Q288 421 310 431H478Q479 430 482 428T487 424T490 421T494 418T496 413T498 408T499 401T500 393Q500 365 482 358Q476 355
452 355Q426 355 425 353Q420 337 351 124T280 -94Q240 -195 168 -220Q147 -228 125 -228Q90 -228 66 -203T42 -139Q42 -116 56 -102T93 -87Q114 -87 129 -100T144 -135V-138H126L124 -143Q121 -150 122 -151T130 -152Q182 -147 207 -87Q211 -78 223 -40T236 1Z"
/>
<glyph unicode="z" glyph-name="z" horiz-adv-x="525" d="M56 1Q42 6 38 13T34 41Q34 59 36 64Q39 67 43 73Q66 96 192 214T341 355H133V334Q133 306 124 297Q116 289 91 289Q71 289 67 291Q56 296 51 308Q49 313 49 361L50 409Q58 426 72 430H78Q83 430 92 430T115
430T144 430T179 431T219 431T262 431H450Q452 429 456 427T462 423T466 418T470 412T471 404T472 391Q472 374 469 368L462 358Q453 349 315 218Q207 119 164 76H391V103Q391 136 400 146Q409 155 433 155Q451 155 457 152Q468 147 473 135Q475 130 475 78Q475
25 473 20Q467 7 453 1H56Z" />
<glyph unicode="{" glyph-name="braceleft" horiz-adv-x="525" d="M430 -7Q457 -7 466 -14T475 -45Q475 -74 456 -81Q451 -83 419 -83Q379 -82 350 -78Q243 -62 223 7L221 17L220 118V220L217 225Q202 256 127 265Q123 266 96 267T67 270Q57 273 52 283Q50 288
50 306Q50 323 52 328Q57 338 67 341Q69 342 96 343T127 346Q202 355 217 386L220 392V493L221 595Q241 686 395 693L406 694Q418 694 426 694Q458 694 466 685Q475 676 475 656T466 627Q458 618 430 618Q320 618 305 587L304 486Q304 387 302 381Q291 335 251
311L243 306L251 300Q291 276 302 231Q304 223 304 125L305 25Q318 -7 430 -7Z" />
<glyph unicode="|" glyph-name="bar" horiz-adv-x="525" d="M228 668Q241 694 262 694Q279 694 297 668V-57L293 -63Q284 -82 262 -82T228 -57V668Z" />
<glyph unicode="}" glyph-name="braceright" horiz-adv-x="525" d="M69 692Q73 694 106 694Q145 693 174 689Q232 680 263 658T303 595L305 392Q317 355 397 346Q400 346 414 345T442 343T457 341Q475 335 475 306Q475 290 472 283Q467 273 457 270Q455 269 442
268T415 266T397 265Q319 256 305 220L303 17L301 7Q281 -62 174 -78Q146 -82 106 -83Q78 -83 72 -82T58 -74Q49 -65 49 -44Q49 -24 58 -16Q66 -7 94 -7Q202 -7 217 20L220 25V125Q220 223 222 231Q233 276 273 300L281 306Q277 308 273 311Q233 335 222 381Q220
387 220 486V587L217 591Q202 618 94 618Q66 618 58 627Q49 635 49 655Q49 676 58 685Q64 691 69 692Z" />
<glyph unicode="~" glyph-name="asciitilde" horiz-adv-x="525" d="M209 609Q219 611 224 611Q259 611 287 570Q300 551 304 551Q319 551 367 594Q383 610 396 610H400Q410 610 424 596Q437 582 437 568Q436 557 413 534Q348 469 305 466Q286 466 273 473Q255
481 237 507Q224 526 220 526Q205 526 157 483Q141 467 129 467H125Q114 467 100 481Q87 495 87 509Q88 520 111 543Q172 602 209 609Z" />
<glyph unicode="" glyph-name="uni007F" horiz-adv-x="525" d="M104 565Q104 587 118 599T155 611Q175 611 180 610Q217 599 217 565Q217 545 203 532T166 519H159Q104 519 104 565ZM307 565Q307 582 318 594T346 610Q348 610 350 610T354 611Q355 612 367 612Q391
611 406 599T421 565Q421 519 365 519H358Q336 519 322 532T307 565Z" />
<glyph unicode="&#xa0;" glyph-name="uni00A0" horiz-adv-x="250" />
<glyph unicode="&#x131;" glyph-name="dotlessi" horiz-adv-x="525" d="M72 38Q72 55 76 62T94 76H233V355H167L102 356Q80 363 80 393T102 430Q103 431 200 431H295Q312 418 315 411Q317 406 317 241V76H378Q438 76 444 73Q462 65 462 38Q462 20 458 14T440 1H94Q72
8 72 38Z" />
<glyph unicode="&#x237;" glyph-name="uni0237" horiz-adv-x="525" d="M100 -91Q123 -91 137 -106T152 -144V-150L160 -151H193Q219 -151 226 -149Q249 -142 267 -121Q281 -100 286 -82Q291 -67 291 -40T292 151V355H218L145 356Q123 364 123 393Q123 423 145
430H148Q151 430 156 430T169 430T185 430T205 431T227 431T251 431H354Q371 418 374 411Q376 406 376 176Q376 -67 371 -88Q351 -159 299 -194Q253 -228 180 -228Q130 -226 101 -215T56 -177Q49 -162 48 -148Q48 -123 62 -107T100 -91Z" />
<glyph unicode="&#x300;" glyph-name="gravecomb" horiz-adv-x="0" d="M-409 569Q-409 584 -400 595T-377 610Q-376 610 -372 610T-365 611Q-355 610 -284 588T-210 563Q-195 556 -195 537Q-195 521 -204 503T-229 485Q-238 485 -312 508T-388 533Q-400 538 -405
552Q-409 559 -409 569Z" />
<glyph unicode="&#x301;" glyph-name="acutecomb" horiz-adv-x="0" d="M-297 485Q-312 485 -321 503T-331 537Q-331 556 -316 563Q-307 569 -170 610Q-169 610 -165 610T-157 611Q-139 609 -128 597T-117 569Q-117 558 -123 547T-138 533Q-140 531 -214 508T-297 485Z" />
<glyph unicode="&#x302;" glyph-name="uni0302" horiz-adv-x="0" d="M-272 609Q-269 611 -261 611Q-254 610 -182 574Q-166 566 -147 556T-118 540T-107 534Q-97 528 -97 512Q-97 502 -106 486Q-115 469 -125 464Q-133 460 -139 460Q-144 460 -150 463Q-151 464
-159 468T-182 481T-209 496L-263 526L-317 496Q-330 489 -344 481T-366 469T-376 463Q-382 460 -387 460Q-393 460 -401 464Q-411 469 -420 486Q-429 502 -429 512Q-429 528 -419 534Q-416 536 -347 571T-272 609Z" />
<glyph unicode="&#x303;" glyph-name="tildecomb" horiz-adv-x="0" d="M-316 609Q-306 611 -301 611Q-266 611 -238 570Q-225 551 -221 551Q-206 551 -158 594Q-142 610 -129 610H-125Q-115 610 -101 596Q-88 582 -88 568Q-89 557 -112 534Q-177 469 -220 466Q-239
466 -252 473Q-270 481 -288 507Q-301 526 -305 526Q-320 526 -368 483Q-384 467 -396 467H-400Q-411 467 -425 481Q-438 495 -438 509Q-437 520 -414 543Q-353 602 -316 609Z" />
<glyph unicode="&#x304;" glyph-name="uni0304" horiz-adv-x="0" d="M-429 500Q-441 505 -446 512T-452 536Q-452 569 -432 575Q-427 577 -261 577H-96Q-87 570 -84 568T-78 557T-74 538Q-74 510 -96 500H-429Z" />
<glyph unicode="&#x306;" glyph-name="uni0306" horiz-adv-x="0" d="M-117 611Q-79 611 -79 577Q-80 554 -98 535Q-122 514 -154 509T-249 504H-263H-277Q-340 504 -371 509T-428 535Q-446 554 -446 579Q-446 597 -437 604T-407 611Q-380 608 -374 593Q-371 589
-358 587Q-340 583 -263 583T-168 587Q-155 589 -152 593Q-147 605 -137 608Q-131 611 -117 611Z" />
<glyph unicode="&#x308;" glyph-name="uni0308" horiz-adv-x="0" d="M-421 565Q-421 587 -407 599T-370 611Q-350 611 -345 610Q-308 599 -308 565Q-308 545 -322 532T-359 519H-366Q-421 519 -421 565ZM-218 565Q-218 582 -207 594T-179 610Q-177 610 -175 610T-171
611Q-170 612 -158 612Q-134 611 -119 599T-104 565Q-104 519 -160 519H-167Q-189 519 -203 532T-218 565Z" />
<glyph unicode="&#x30a;" glyph-name="uni030A" horiz-adv-x="0" d="M-344 558Q-344 586 -319 602T-262 619Q-223 619 -199 595Q-182 578 -182 560Q-182 532 -207 516T-264 499Q-304 499 -327 524Q-344 541 -344 558ZM-223 559Q-223 571 -234 579T-261 588Q-277
588 -290 580T-303 559T-290 538T-263 530Q-248 530 -236 538T-223 559Z" />
<glyph unicode="&#x30c;" glyph-name="uni030C" horiz-adv-x="0" d="M-411 567Q-401 577 -392 577Q-385 577 -323 553L-263 530L-203 553Q-143 576 -136 576Q-123 576 -116 568Q-112 565 -106 550T-99 525Q-99 503 -114 498Q-123 494 -188 472T-263 449T-339 472T-412
498Q-427 503 -427 525Q-427 534 -421 549T-411 567Z" />
<glyph unicode="&#x393;" glyph-name="Gamma" horiz-adv-x="525" d="M44 609Q49 611 258 611H466Q483 598 486 591Q488 586 488 526T486 461Q481 449 470 444Q466 442 446 442Q421 442 413 450Q406 457 405 463T404 501V535H185V76H222Q257 76 263 73Q281 65 281
38T263 3Q257 0 155 0Q69 0 56 1T35 7Q28 14 27 18T25 38T26 58T35 69Q44 76 76 76H101V535H76Q44 535 35 542Q28 549 27 553T25 573T27 594Q34 606 44 609Z" />
<glyph unicode="&#x394;" glyph-name="increment" horiz-adv-x="525" d="M232 622H237Q242 622 249 622T264 623H293Q295 622 300 619T308 613T314 608T319 601Q322 597 405 316T489 19Q489 9 473 1Q471 0 262 0T51 1Q35 9 35 19Q35 34 118 315T205 601Q214 616
232 622ZM267 501Q266 504 265 510T263 521T261 526V523Q261 508 211 332Q142 91 138 82H386Q385 84 345 224Q281 439 267 501Z" />
<glyph unicode="&#x398;" glyph-name="Theta" horiz-adv-x="525" d="M102 588Q139 621 240 621Q323 621 335 620Q393 613 422 588Q468 543 468 306Q468 68 422 23Q398 2 363 -4T262 -10T162 -4T102 23Q56 68 56 306Q56 543 102 588ZM337 534Q309 545 251 545T170
522Q156 508 149 470T141 400T140 306Q140 228 142 202Q146 139 155 114T187 77T262 66Q301 66 323 72T358 96T375 136T382 202Q384 228 384 306Q384 382 382 410Q378 472 369 497T337 534ZM179 356Q184 369 193 373T223 378Q243 377 252 369Q261 362 261 355Q261
353 262 353T263 355Q263 362 272 369Q280 377 304 377Q325 377 331 374T346 356V256Q339 242 332 238T304 234Q280 234 272 242Q263 249 263 256Q263 258 262 258T261 256Q261 249 252 242Q244 234 220 234Q199 234 192 238T179 256V356Z" />
<glyph unicode="&#x39b;" glyph-name="Lambda" horiz-adv-x="525" d="M52 1Q30 9 30 38Q30 54 33 60T47 73Q53 76 70 76Q88 76 88 78Q89 79 117 207T173 466T205 602Q213 617 231 622H236Q241 622 249 622T264 623H294Q315 609 319 602Q321 598 350 468T407 208T435
78Q436 76 454 76Q470 76 478 73Q495 62 495 38Q495 10 473 1H313Q290 10 290 38Q290 57 299 67Q306 75 331 76Q350 76 350 78Q349 80 328 176T285 383T263 520Q263 526 262 527Q261 527 261 521Q261 497 240 388T198 181T174 78Q174 76 193 76Q218 75 225 67Q234
57 234 38Q234 11 212 1H52Z" />
<glyph unicode="&#x39e;" glyph-name="Xi" horiz-adv-x="525" d="M465 611Q468 609 472 606T477 602T481 599T484 594T485 589T487 581T487 570T487 554Q487 526 486 520T478 506Q470 498 445 498T412 506Q403 515 403 531V539H121V531Q121 515 112 506Q104 498
79 498Q59 498 55 500Q44 505 39 517Q37 522 37 555Q37 587 40 593Q47 607 60 610H66Q71 610 81 610T105 610T137 610T175 611T217 611T264 611H465ZM193 277Q193 258 170 247H132Q115 255 111 267Q109 272 109 318T111 369Q115 381 132 389H170Q193 378 193 359V354H331V359Q331
378 354 389H392Q409 381 413 369Q415 364 415 318T413 267Q409 255 392 247H354Q331 258 331 277V282H193V277ZM77 119Q100 118 108 111T117 83V72H407V83Q407 101 416 110T449 119T482 110Q489 103 490 97T491 59Q491 25 489 20Q483 7 469 1H56Q42 6 36 18Q33
24 33 58Q33 94 34 98Q40 111 48 115T77 119Z" />
<glyph unicode="&#x3a0;" glyph-name="Pi" horiz-adv-x="525" d="M39 1Q26 6 22 12T17 38Q17 55 19 59Q24 68 33 73Q40 76 60 76H81V535H60Q40 535 33 538Q16 546 16 571Q16 602 36 609Q41 611 264 611H486Q496 605 499 603T505 594T508 573Q508 558 505 552Q500
543 491 538Q484 535 464 535H443V76H464Q484 76 491 73Q500 68 505 59Q508 53 508 38Q508 20 504 13T486 1H317Q304 6 300 12T295 38Q295 55 297 59Q302 68 311 73Q318 76 338 76H359V535H165V76H186Q206 76 213 73Q222 68 227 59Q230 53 230 38Q230 20 226 13T208
1H39Z" />
<glyph unicode="&#x3a3;" glyph-name="Sigma" horiz-adv-x="525" d="M40 575Q42 602 63 610H68Q74 610 84 610T108 610T139 610T176 611T219 611T264 611H462Q479 598 482 591Q484 586 484 526T482 461Q477 449 466 444Q462 442 442 442Q417 442 409 450Q402 457
401 463T400 501V535H153Q153 533 218 430Q233 405 250 378T276 336T286 319Q292 306 287 294L161 78H400V112Q400 142 401 149T409 163Q418 172 442 172Q460 172 466 169Q477 164 482 152Q484 147 484 86T482 20Q476 7 462 1H63Q41 10 41 31Q41 39 43 44Q45 46
120 172T195 303Q195 307 119 430T41 557T40 575Z" />
<glyph unicode="&#x3a5;" glyph-name="Upsilon" horiz-adv-x="525" d="M152 621Q205 621 228 587T262 492Q263 496 265 506T269 522Q292 622 365 622Q416 622 451 584T486 494Q486 470 469 461Q464 459 445 459Q420 459 413 465T403 495Q401 527 393 542T365 558Q356
558 350 555Q318 540 309 449Q305 414 304 239V76H358Q367 70 370 67T377 57T380 38Q380 10 358 1H167Q145 9 145 38Q145 51 147 58T153 68T167 76H220V239Q218 414 218 418Q210 538 174 555Q168 558 159 558T145 556Q124 544 121 495Q119 473 112 466T79 459T46
465T38 494Q38 543 68 578T143 621H152Z" />
<glyph unicode="&#x3a6;" glyph-name="Phi" horiz-adv-x="525" d="M139 543T139 573T161 610H166Q172 610 182 610T204 610T232 611T264 611H364Q371 607 373 605T379 599T384 588T385 573Q385 544 364 536L334 535H304V441H306L308 440Q310 440 312 440T317 439Q373
431 420 401T481 330Q483 321 483 306Q483 290 481 282Q468 241 421 211T317 172Q315 172 313 172T308 170H306H304V76H364Q371 72 373 70T379 64T384 53T385 38Q385 9 364 1H161Q139 8 139 38Q139 55 143 62T161 76H220V170H218H216Q214 171 212 171T208 172Q151
180 104 210T43 282Q41 290 41 306Q41 321 43 330Q56 371 103 401T208 439Q210 439 212 439T216 440L218 441H220V535H190L161 536Q139 543 139 573ZM220 306V364H218Q199 364 171 352T133 329Q124 318 124 306Q124 296 131 286Q148 260 204 250Q214 247 218 247Q220
247 220 306ZM320 361Q310 364 306 364Q304 364 304 306Q304 247 306 247Q324 247 353 259T391 282T400 305Q400 315 393 325Q376 351 320 361Z" />
<glyph unicode="&#x3a8;" glyph-name="Psi" horiz-adv-x="525" d="M77 475Q113 475 129 460T152 411Q152 409 153 396T154 372Q156 327 165 302T198 261Q215 251 219 251Q220 251 220 393V535H193L167 536Q145 544 145 573Q145 603 167 610Q168 611 264 611H358Q367
605 370 602T377 592T380 573Q380 545 358 536L331 535H304V393Q304 251 305 251Q308 251 326 261Q350 277 359 301T370 372Q370 382 371 395T372 411Q378 445 394 460T447 475Q470 474 478 466Q487 457 487 437Q487 419 481 412Q477 404 459 398Q455 383 454 363Q451
301 431 263Q399 195 320 175Q311 172 306 172H304V76H358Q367 70 370 67T377 57T380 38Q380 10 358 1H167Q145 9 145 38Q145 51 147 58T153 68T167 76H220V172H218Q213 172 204 175Q125 195 93 263Q73 301 70 363Q68 388 67 391L66 398Q49 403 43 411T37 439Q39
460 46 467T77 475Z" />
<glyph unicode="&#x3a9;" glyph-name="Omega" horiz-adv-x="525" d="M40 404Q40 493 103 557T258 622Q283 622 310 617Q383 602 433 545T484 406Q484 382 480 359Q472 307 429 209Q402 147 392 117Q382 84 382 78Q382 76 402 76H421V87Q421 123 457 123Q474 123
483 114Q490 107 491 100T492 61Q492 25 490 20Q485 8 474 3Q470 1 397 1H324Q310 6 304 18Q302 22 302 39Q302 70 310 105T326 164T353 231Q381 300 391 339Q400 375 400 405Q400 460 368 497T287 544Q275 546 262 546Q209 546 173 515T127 435Q124 422 124 405Q124
375 133 339Q143 300 171 231Q189 186 197 165T213 109T223 42Q223 25 221 20Q216 8 205 3Q201 1 128 1H55Q39 7 33 23L32 60Q32 98 34 103Q43 123 68 123Q103 123 103 87V76H123Q142 76 142 78Q142 84 132 117Q122 147 95 209Q46 322 41 383Q40 390 40 404Z" />
<glyph unicode="&#x7e2;" glyph-name="uni07E2" horiz-adv-x="525" d="M205 529T205 554T221 595T263 611Q275 611 290 606Q317 595 333 564T349 490Q349 409 298 347Q277 318 239 296Q224 287 214 287Q204 288 190 302T175 327Q175 345 196 358Q228 374 249 407T273
483V497Q272 497 269 497T263 496Q240 496 223 512Z" />
<glyph unicode="&#x7e3;" glyph-name="uni07E3" horiz-adv-x="525" d="M320 414Q320 388 303 373T261 357Q246 357 235 362Q208 373 192 404T176 479Q176 572 244 640Q272 668 298 679Q302 681 310 681Q322 680 337 665Q350 651 350 641Q350 623 329 610Q297 594
276 561T252 485V471Q253 471 256 471T262 472Q285 472 302 456T320 414Z" />
<glyph unicode="&#x2032;" glyph-name="minute" horiz-adv-x="525" d="M211 572Q211 594 225 608T262 623Q293 623 309 594Q313 586 313 573Q313 561 307 465Q301 374 300 362T293 343Q286 336 282 335T262 334T242 335T231 343Q226 350 225 362T217 465Q211 549
211 572Z" />
<glyph unicode="&#xeffd;" glyph-name="uniEFFD" horiz-adv-x="300" d="M0 0V100H100V0H0ZM200 0V100H300V0H200Z" />
<glyph unicode="&#xeffe;" glyph-name="uniEFFE" horiz-adv-x="300" d="M0 0V100H100V0H0ZM200 0V100H300V0H200Z" />
<glyph unicode="&#xefff;" glyph-name="uniEFFF" horiz-adv-x="100" d="M0 0V100H100V0H0Z" />
</font>
</defs>
</svg>
